#TITLE:光速快感;
#SUBTITLE:;
#ARTIST:LQB;
#TITLETRANSLIT:;
#SUBTITLETRANSLIT:;
#ARTISTTRANSLIT:;
#CREDIT:;
#BANNER:ٿ_logo.jpg;
#BACKGROUND:ٿ_bg.jpg;
#LYRICSPATH:;
#CDTITLE:Lan.png;
#MUSIC:ٿ.mp3;
#OFFSET:-0.080;
#SAMPLESTART:100.000;
#SAMPLELENGTH:12.000;
#SELECTABLE:YES;
#BPMS:0.000=150.000;
#STOPS:;
#BGCHANGES:;
// cache tags:
#FIRSTBEAT:40.000;
#LASTBEAT:348.000;
#SONGFILENAME:Songs/lan sky/ٿ/ٿ.sm;
#HASMUSIC:1;
#HASBANNER:1;
#MUSICLENGTH:140.231;
// end cache tags

//---------------dance-single - sky----------------
#NOTES:
     dance-single:
     sky:
     Hard:
     10:
     0.798,1.000,0.699,0.014,0.485,683.000,98.000,2.000,0.000,0.000:

0000
0000
0000
0000
,
0000
0000
0000
0000
,
0000
0000
0000
0000
,
0000
0000
0000
0000
,
0000
0000
0000
0000
,
0000
0000
0000
0000
,
0000
0000
0000
0000
,
0000
0000
0000
0000
,
0000
0000
0000
0000
,
0000
0000
0000
0000
,
1000
0000
0010
0000
0100
0001
0000
0000
0010
0000
0000
0000
0100
0000
1000
0000
,
0001
0000
0000
0100
0000
0000
0010
0000
1000
0000
0010
0000
0001
0000
0100
0000
,
0010
0000
1000
0000
0001
0001
0000
0000
0010
0000
0100
0000
1000
0000
0100
0000
,
0001
0000
0000
0010
0000
0000
0100
0000
0010
0000
1000
0000
0001
0000
0010
0000
,
0001
0000
0100
0000
1000
1000
0000
0000
0010
0000
0001
0000
0000
0100
1000
0000
,
0010
0000
0000
0001
0000
0000
0100
0000
1000
0000
0010
0000
0100
0000
0001
0000
,
1000
0000
0010
0000
0001
0100
0000
0000
0010
0000
1000
0000
0001
0000
0100
0000
,
1000
0000
0100
0000
0001
0000
0010
0000
1000
0100
0010
0100
0001
0010
1000
0100
,
0001
0010
1100
0100
0001
1000
0110
0001
,
1000
0100
0011
0100
0010
1000
0101
0010
,
1000
0010
0101
0010
1000
0010
1100
0010
,
0100
0000
0001
0000
0110
0000
0001
0000
0000
0010
1000
0000
0001
0010
0100
1000
,
0010
0001
1010
0100
0001
1000
0110
0001
,
0010
1000
0101
0010
1000
0100
1001
0010
,
0100
0010
1100
0010
0100
0001
1010
0100
,
0001
0000
0010
0000
1001
0000
0100
0000
0000
0010
1000
0000
0010
0001
0010
0100
,
1000
0100
0011
0100
1000
0001
1010
0100
,
0010
0001
1100
0010
0100
0001
1010
0100
,
1000
0100
0011
0100
0001
1000
0110
0001
,
0010
1000
0110
0001
1000
0100
0011
0100
,
0001
0010
1100
0100
0001
0010
1100
0010
,
0001
0100
0011
1000
0010
0001
1100
0010
,
0100
0001
0110
1000
0100
0010
1001
0010
,
0100
0000
0001
0000
0110
0000
1000
0000
0010
0000
0100
0010
0001
0010
0100
1000
,
0001
0010
0100
0001
1000
0010
0100
0001
1000
0010
0100
0010
0001
1000
0100
0010
,
1000
0010
0100
0001
0010
1000
0010
0100
0001
1000
0100
0001
0010
1000
0010
0100
,
0001
1000
0010
0100
0001
0010
1000
0010
0100
0001
1000
0010
0100
0010
1000
0010
,
0100
0001
0010
1000
0010
0100
0001
0010
0100
1000
0100
0010
0001
0010
0100
1000
,
0010
0100
1000
0001
0010
1000
0001
0010
0100
0010
0100
1000
0010
0100
0010
1000
,
0100
0001
0010
1000
0100
0010
1000
0010
0100
0001
0010
1000
0100
0001
0010
1000
,
0010
0100
1000
0100
1000
0010
0001
0010
1000
0010
0100
0001
0010
1000
0010
0100
,
0001
1000
0100
0010
0001
0010
0100
1000
0100
0010
0001
0010
0100
1000
0100
0010
,
0001
1000
0110
0010
0001
0100
1010
0100
,
0010
0001
1100
0001
0100
0010
1001
0100
,
0010
0001
1100
0100
0011
0010
1001
0100
,
0001
0010
1100
0100
0010
0001
1010
0100
,
0001
0010
1100
0001
0010
1000
0101
0010
,
1000
0100
0011
0100
1000
0100
1010
0100
,
0010
0001
0110
0010
1000
0010
0101
1000
,
0001
0010
0100
1000
0100
0010
0001
0010
0100
1000
0100
0010
0001
0010
0100
1000
,
0001
0000
0100
0000
0011
0000
1000
0100
0000
0000
0001
0000
1100
0000
0010
0000
,
0001
0000
0100
0000
0011
0000
1000
0100
0000
0000
0001
0000
1100
0000
0010
0000
,
0001
0000
0100
0000
1010
0000
1000
0100
0000
0000
0001
0000
0110
0000
0010
0000
,
0001
0000
0100
0000
1010
0000
1000
0100
0000
0000
0001
0000
0101
0000
0010
0000
,
0001
0000
0100
0000
0011
0000
1000
0100
0000
0000
0001
0010
1100
0000
0010
0000
,
0001
0000
0100
0000
0011
0000
1000
0100
0000
0000
0001
0010
0101
0000
0010
0000
,
0001
0000
0100
0000
0011
0000
1000
0100
0000
0000
0001
0010
0101
0000
0010
0000
,
0001
0000
0010
0000
1100
0000
0100
0010
1000
1000
0100
0100
0010
0010
0001
0001
,
1000
0000
0100
0000
0011
0000
0100
1000
0000
0000
0010
0000
0100
0000
0001
0000
,
0010
0000
1000
0000
0110
0000
0001
1000
0000
0000
0100
0000
0001
0000
1000
0000
,
0010
0000
0100
0000
1010
0000
0100
0001
0000
0000
0010
0000
1000
0000
0010
0000
,
0100
0000
0001
0000
1100
0000
0010
0001
0000
0000
1000
0000
0001
0000
0100
0000
,
0001
0000
0010
0000
1100
0000
0010
1000
0000
0000
0100
0000
0010
0000
0001
0000
,
0100
0000
0001
0000
0110
0000
0001
1000
0000
0000
0100
0000
0001
0000
1000
0000
,
0010
0000
0100
0000
0011
0000
1000
0100
0000
0000
0010
0000
0100
0000
1000
0000
,
0100
0000
0010
0000
0011
0000
0010
1000
0100
0010
0001
0010
0100
0010
1000
0001
,
0010
1000
0110
0001
1000
0100
0011
1000
,
0010
0100
0011
0010
0100
1000
1001
0010
,
0100
0001
1010
0100
0001
0010
0101
0010
,
1000
0100
0011
1000
0010
0100
1010
0100
,
0001
0100
1010
0100
0001
0010
1001
0100
,
1000
0010
0101
0010
1000
0100
0011
0100
,
1000
0010
0101
0010
1000
0010
0101
1000
,
0100
0010
0001
0010
1000
0010
0100
0010
0001
0010
1000
0100
0010
1000
0100
0010
,
0001
0110
1000
0101
,
0010
1001
0100
0011
,
1000
0101
0010
1010
,
0100
0011
0010
1001
,
0010
1010
0100
0101
,
0001
1010
1000
0101
,
0010
1100
0100
0011
,
0010
0101
0010
1100
,
1000
0000
0010
0000
0100
0000
0001
0000
0010
0000
1000
0000
0010
0000
0100
0010
,
0001
0000
0010
0000
1000
0000
0000
0100
0001
0000
0010
0000
1000
0000
0010
1000
,
0100
0000
0001
0000
0010
0000
1000
0000
0010
0000
0100
0000
0001
0000
0000
0010
,
1000
0000
0010
0000
0100
0000
0001
0000
0010
0100
1000
0010
0001
0100
0001
1000
,
0220
0000
0000
0000
,
0330
0000
0000
0000
;
